Salut Vizitatorule!
Inregistreaza-te si ajutane sa ne dezvoltam!
Comunitate By Coada.



 
AcasaPortalCalendarFAQCautareInregistrareConectare

Distribuiţi | 
 

 Witchville.2010.DvDRip.XviD.Ac3.Feel-Free

In jos 
AutorMesaj
Coada
Administrator
Administrator
avatar

Mesaje : 52
Data de inscriere : 06/02/2011
Varsta : 21
Localizare : World Of Counter

MesajSubiect: Witchville.2010.DvDRip.XviD.Ac3.Feel-Free   Lun Iul 04, 2011 11:29 pm

Download

Genre:Fantasy
Language:English
IMDb:http://www.imdb.com/title/tt1506458/
Source:DVD Thanks!
Subtitles:Romana

Format : AVI
Format/Info : Audio Video Interleave
File size : 1.19 GiB
Duration : 1h 29mn
Overall bit rate : 1 910 Kbps

Video
ID : 0
Format : MPEG-4 Visual
Format profile : Advanced Simple@L5
Format settings, BVOP : Yes
Format settings, QPel : No
Format settings, GMC : No warppoints
Format settings, Matrix : Default (H.263)
Codec ID : XVID
Codec ID/Hint : XviD
Duration : 1h 29mn
Bit rate : 1 452 Kbps
Width : 720 pixels
Height : 400 pixels
Display aspect ratio : 16:9
Frame rate : 23.976 fps
Color space : YUV
Chroma subsampling : 4:2:0
Bit depth : 8 bits
Scan type : Progressive
Bits/(Pixel*Frame) : 0.210
Stream size : 929 MiB (76%)
Writing library : XviD 1.2.1 (UTC 2008-12-04)

Audio
ID : 1
Format : AC-3
Format/Info : Audio Coding 3
Mode extension : CM (complete main)
Codec ID : 2000
Duration : 1h 29mn
Bit rate mode : Constant
Bit rate : 448 Kbps
Channel(s) : 6 channels
Channel positions : Front: L C R, Side: L R, LFE
Sampling rate : 48.0 KHz
Bit depth : 16 bits
Stream size : 287 MiB (23%)
Alignment : Aligned on interleaves
Interleave, duration : 42 ms (1.00 video frame)
Interleave, preload duration : 512 ms
Sus In jos
Vezi profilul utilizatorului http://worldofcounter.wow3.info
 
Witchville.2010.DvDRip.XviD.Ac3.Feel-Free
Sus 
Pagina 1 din 1
 Subiecte similare
-
» Romania Stunt Empire [0.3x] » 93.119.30.150:7777 V.I.P Free !

Permisiunile acestui forum:Nu puteti raspunde la subiectele acestui forum
 :: Distractie & Off-Topic :: Torrente-
Mergi direct la: